#TITLE:Death Moon;
#SUBTITLE:;
#ARTIST:SHK.o2SE;
#TITLETRANSLIT:;
#SUBTITLETRANSLIT:;
#ARTISTTRANSLIT:;
#CREDIT:;
#BANNER:Death Moon.jpg;
#BACKGROUND:Death Moon-bg.jpg;
#LYRICSPATH:;
#CDTITLE:cdtitle.png;
#MUSIC:Death Moon.mp3;
#OFFSET:-0.035;
#SAMPLESTART:74.086;
#SAMPLELENGTH:12.000;
#SELECTABLE:YES;
#BPMS:0.000=160.000,68.000=80.000,100.000=40.000,102.000=35.500,103.000=32.000,103.875=160.000,184.000=80.000,207.750=160.000;
#STOPS:103.875=1.720
,207.750=1.600
;
#BGCHANGES:;
// cache tags:
#FIRSTBEAT:0.000;
#LASTBEAT:343.000;
#SONGFILENAME:Songs/Music V.I.P ^_^/Braintrust - Death Moon/Death Moon.sm;
#HASMUSIC:1;
#HASBANNER:1;
#MUSICLENGTH:161.802;
// end cache tags

//---------------dance-single - Challenge----------------
#NOTES:
     dance-single:
     Challenge:
     Challenge:
     11:
     0.732,1.000,0.222,0.810,0.664,657.000,36.000,131.000,68.000,11.000:
0000
0000
0000
0000
,
0000
0000
0000
0000
,
0000
0000
0000
0000
,
0000
0000
0000
0000
,
0001
1000
0010
0200
0000
0000
0000
0000
,
0310
MM0M
1000
0000
0001
0000
0010
0000
,
0001
1000
0100
0020
0000
0000
0000
0000
,
0130
M0MM
1000
0000
0001
0000
0010
0000
,
1001
0000
0110
0000
1001
0000
0110
MMMM
,
0002
0000
0000
0000
0000
0003
1000
0001
0020
0000
0000
0000
0000
0030
0001
1000
,
0200
0000
0000
0000
0000
0300
1000
0001
0020
0000
0000
0000
0000
0030
0001
1000
,
0200
0000
0000
0000
0000
0300
1000
0001
0020
0000
0000
0000
0000
0030
0100
1000
,
0001
1000
M100
0M10
00M1
0M10
M100
1000
,
2000
0000
0000
0000
0000
3000
0001
1000
0200
0000
0000
0000
0000
0300
1000
0001
,
0020
0000
0000
0000
0000
0030
0001
1000
0200
0000
0000
0000
0000
0300
1000
0001
,
0020
0000
0000
0000
0000
0030
0001
1000
0200
0000
0000
0000
0000
0300
1000
0001
,
1000
0001
001M
01M0
1M00
01M0
001M
0001
,
1000
0100
1000
0020
0030
1000
0001
1000
0001
0100
0010
2000
3000
0001
1000
0010
,
0100
0001
0010
0200
0300
1000
0100
1000
0010
1000
0001
0010
0100
1000
0001
0100
,
0010
1000
0010
2000
3000
0001
1000
0010
0100
0001
0010
0200
0300
1000
0001
1000
,
0010
0100
0001
2000
3000
0010
1000
0001
0010
0100
1000
0001
0100
0001
1000
0010
,
2000
0000
3002
0000
0203
0010
2300
0001
3020
0000
0230
0000
2300
0001
3200
0010
,
2300
0000
3002
0000
0023
0100
1030
0100
2000
0000
01MM
0000
01MM
0000
01MM
0000
,
3020
0000
2030
0000
3020
0100
0032
1000
0203
0000
0320
0000
0032
1000
0023
0100
,
0032
0000
2003
0000
3200
0010
0301
0010
0002
0000
MM10
0000
MM10
0000
MM10
0000
,
1003
0010
0100
0001
1000
0010
0100
0001
0010
0100
1000
0100
0010
0100
1000
0010
1000
0001
0100
0010
1000
0001
0100
0010
1000
0001
1000
0010
0100
0001
1000
0010
,
2002
0000
0000
0000
,
0000
0000
0000
0000
,
3003
M00M
1001
0000
1001
0000
1001
0000
,
0001
1000
0001
1000
0001
1000
0001
1000
0010
0100
0010
0100
0010
0100
0010
0100
,
0001
1000
0001
1000
0001
1000
0001
1000
0100
0010
0100
0010
0100
0010
0100
0010
,
0001
0010
0001
0010
0001
0010
0001
0010
0001
0100
0001
0100
0001
0100
0001
0100
,
0020
0000
0000
2030
0000
0000
3002
0000
,
0013
1000
0001
1000
0001
1000
0001
1000
0010
0100
0010
0100
0010
0100
0010
0100
,
0001
1000
0001
1000
0001
1000
0001
1000
0100
0010
0100
0010
0100
0010
0100
0010
,
0001
0010
0001
0010
0001
0010
0001
0010
0001
0100
0001
0100
0001
0100
0001
0100
,
0002
0000
0000
2003
0000
0000
3020
0000
,
0032
1003
0010
0100
0001
1000
0010
0100
,
0002
0103
0010
0100
0001
0100
0010
0100
,
0002
1003
0010
1000
0001
1000
0010
1000
,
0002
0013
0100
1000
0001
0010
0100
1000
,
2000
3001
1000
0100
0001
0100
1000
0010
,
0002
0013
1000
0100
0010
0001
0010
1000
,
0200
0310
0100
0001
0010
0100
1000
0010
,
2000
3001
1000
0100
0010
0001
1000
0010
,
1001
1001
1001
1001
,
2000
0000
3002
0000
0203
0010
2300
0001
3020
0000
0230
0000
2300
0001
3200
0010
,
2300
0000
0000
0000
3002
0000
0000
0000
0023
0000
0100
0000
1030
0000
0100
0000
1000
0001
1000
0001
1000
0001
1000
0001
1000
0001
1000
0001
1000
0001
1000
0001
,
2000
0000
3020
0000
0230
0010
2300
0001
3020
0000
0230
0000
2300
0001
3200
0010
,
2300
0000
0000
0000
3002
0000
0000
0000
0023
0000
0100
0000
1030
0000
0100
0000
1000
0001
1000
0001
1000
0001
1000
0001
1000
0001
1000
0001
1000
0001
1000
0001
,
1000
0010
0100
0001
1000
0010
0100
0001
0010
0100
1000
0100
0010
0100
1000
0010
,
1000
0001
0100
0010
1000
0001
0100
0010
1000
0001
1000
0010
0100
0001
1000
0010
,
2002
0000
0000
0000
,
0000
0000
0000
0000
,
3003
M00M
1001
0000
1001
0000
1001
0000
,
0002
0023
2030
3200
,
0302
0000
0000
2000
0000
0000
0000
0000
,
3223
0000
0000
2000
0000
0000
3002
0000
,
2003
0000
0000
0002
0000
0000
0000
3333
,
2011
3200
0320
0032
,
2003
0000
0000
3002
0000
0000
0000
0000
,
2003
0000
0000
3020
0000
0000
0230
0000
,
0302
0000
0000
2000
0000
0000
0220
3333
,
0001
1000
0001
1000
0001
1000
0001
1000
0001
0010
0001
0010
0001
0010
0001
0010
,
0001
0100
0001
0100
0001
0100
0001
0100
0001
1000
0001
1000
0001
1000
0001
1000
,
0002
0000
0000
0000
0000
0000
2003
0000
0000
00M0
0000
0000
3020
0000
0000
0000
,
2030
0000
0000
00M0
0000
0000
3002
0000
0000
0M00
0000
0000
0203
0000
0000
0000
,
0310
1000
0001
0100
0010
1000
0001
0100
0010
1000
0001
0100
0010
1000
0001
0100
,
0010
0100
0010
1000
0010
0100
0010
1000
0010
0100
0010
1000
0010
0100
0001
1000
,
M2MM
0000
M0MM
2300
0MMM
0000
3MM2
0000
,
2MM3
0000
0MMM
3002
MMM0
0000
MM23
0000
,
0032
1003
0010
0100
0001
1000
0010
0100
,
0102
0103
0010
0100
0001
0100
0010
0100
,
1002
1003
0010
1000
0001
1000
0010
1000
,
0012
0013
0100
1000
0001
0010
0100
1000
,
2001
3001
1000
0100
0001
0100
1000
0010
,
0012
0013
1000
0100
0010
0001
0010
1000
,
0210
0310
0100
0001
0010
0100
1000
0010
,
2001
3001
1000
0100
0010
0001
1000
0010
,
1001
0011
1100
0110
,
1001
1011
1101
1111
,
2MM2
0000
0000
0000
,
0MM0
0000
0000
0000
,
0MM0
0000
0000
0000
,
0MM0
0000
0000
0000
,
3113
0000
0000
0000
;

//---------------dance-single - Copied from----------------
#NOTES:
     dance-single:
     Copied from:
     Edit:
     13:
     1.000,1.000,1.000,0.884,1.000,1127.000,254.000,143.000,0.000,34.000:
1000
0000
0010
0000
0100
0000
2002
0000
0000
0000
0000
0000
0000
0000
0000
3003
,
0120
0030
0000
0000
1200
0300
0000
0000
0120
0030
0000
0000
0012
0003
0000
0000
,
0010
0000
0100
0000
0010
0000
2002
0000
0000
0000
0000
0000
0000
0000
0000
3003
,
0210
0300
0000
0000
0021
0030
0000
0000
0210
0300
0000
0000
2100
3000
0000
0000
,
1100
0000
0110
0000
1100
0000
0021
0000
1000
0000
0100
0000
1000
0000
0100
0030
,
1002
0003
0000
0000
1020
0030
0000
0000
0021
0030
0000
0000
1200
0300
0000
0000
,
0011
0000
0110
0000
0110
0000
1200
0000
0001
0000
0010
0000
0001
0000
0010
0300
,
1001
0000
0010
0000
1001
0000
0100
0000
1001
0010
0100
0010
1001
0100
0010
0100
,
2020
3000
0100
0000
1000
0000
0100
0030
,
2001
0000
0010
0001
0010
0000
0100
3010
0102
0000
1000
0100
1000
0000
0100
0013
,
1200
0000
0010
0001
0010
0000
0010
0301
1020
0000
0100
1000
0100
0000
0100
1030
,
0102
0000
0010
0100
0010
0000
0010
0103
2010
0000
0010
0001
0010
0000
0010
3100
,
0011
1000
0110
1000
1010
0100
0011
0100
,
2001
0000
0100
0010
0001
0000
0001
3100
0021
0000
1000
0100
0001
0030
1001
1001
,
0201
0000
0001
0010
1000
0000
0010
1300
0012
0000
1000
0010
0100
0000
1000
0103
,
1020
0000
1000
0100
0001
0000
0100
0031
2100
0000
0010
0001
0100
3000
0110
0110
,
2001
0000
0100
0000
0010
3000
0110
0110
1001
0000
1001
0100
0010
0100
0010
0100
,
2001
0100
0010
0100
0001
0010
0100
3001
0120
1000
0100
0001
1000
0100
1000
0031
,
1200
0000
0010
0000
0001
0000
1000
0000
0010
0000
1000
0000
0001
0000
0310
0000
1000
0010
0100
0001
1000
0010
0100
0001
1000
0010
0100
0001
1000
0010
0100
0001
,
0110
0000
1000
0100
0011
0000
0001
0010
1100
0000
1000
0010
0101
0000
0001
0100
1010
0000
0100
0010
1001
0000
0010
0100
1001
0000
0100
1000
0110
0000
0010
0001
,
0110
0000
1000
0100
1010
0000
0001
0010
0101
0000
0010
0100
1001
0000
0100
0010
1001
0010
0100
1000
0100
0010
0001
0010
0100
1000
0100
0010
0001
0010
0100
1000
,
0120
0130
0012
0013
2100
3100
1020
1030
0201
0301
0120
0130
2001
3001
1200
1300
,
0120
0000
0130
0000
0012
0000
0013
0000
1200
0000
1300
0000
0102
0000
0103
0000
1000
0010
1000
0010
0100
0001
0100
0001
0010
1000
0010
1000
0100
0001
0100
0001
,
1010
0100
0011
0100
1010
0001
0110
1000
0101
0010
1001
0100
1010
0001
1100
0010
,
1001
0000
0010
0000
1100
0000
0001
0000
0110
0000
0001
0000
1100
0000
0010
0000
1000
0001
1000
0001
1000
0001
1000
0001
0010
0100
0010
0100
0010
0100
0010
0100
,
1001
0100
0010
0100
0011
0100
1000
0100
1010
0100
0010
0001
0110
1000
0100
1000
0101
0010
0100
0010
1001
0010
1000
0100
1010
0100
0001
0010
0101
0010
1000
0100
,
2002
0000
0000
0000
0000
0000
0000
0000
0000
0000
0000
0000
0000
0000
0000
3003
,
1000
0010
0100
0001
0100
0010
1000
0010
0100
0001
0100
0010
1000
0010
0100
0001
,
0110
1000
0001
1000
0110
0001
1000
0001
0110
1000
0001
1000
0110
0001
1000
0001
,
1200
0010
0001
0310
0002
0010
0100
1003
0020
0100
1000
0130
2000
0001
0010
3001
,
0200
0001
0010
1000
0010
0301
0020
0100
1000
0100
0001
0130
2000
0100
0001
3010
,
0002
0010
1000
0100
0010
1003
0200
0010
1000
0001
0010
1300
0020
0100
1000
0130
,
2000
0100
0010
0001
0010
3001
0200
1000
0010
0001
1000
0310
0002
0010
0100
1003
,
0110
0001
0010
0100
1010
0100
1000
0010
0101
0010
0100
1000
0011
0100
0010
1000
,
0110
0001
0010
0100
1001
0100
1000
0100
1010
0001
0010
0001
0110
1000
0100
0010
,
0101
1000
0010
0100
0011
0100
1000
0100
1001
0010
0100
0010
1100
0010
0001
0100
,
0011
0100
1000
0100
1010
0100
0010
0001
0110
1000
0100
0001
0110
0001
0010
0100
,
2001
0000
0010
0000
0101
0000
0010
0000
0100
0000
0010
0000
0101
0000
0010
3000
,
0201
0000
0010
0000
1001
0000
0010
0000
0001
0000
0010
0000
1001
0000
0010
0300
,
0021
0000
0100
0000
1100
0000
0001
0000
0100
0000
0001
0000
1100
0000
0100
0030
,
1002
0000
0010
0000
1100
0000
0010
0000
1000
0000
0100
0000
1010
0000
0100
0003
,
1001
0100
1000
0100
1010
0100
1000
0100
1001
0100
1000
0100
1010
0100
1000
0100
,
1001
0010
0001
0010
0101
0010
0001
0010
1001
0010
0001
0010
0101
0010
0001
0010
,
1001
0100
0010
0100
1001
0100
0010
0100
1001
0100
0010
0100
1001
0100
0010
0100
,
1001
0010
0100
0010
1001
0010
0100
0010
1001
0010
0100
0010
1001
0010
0100
0010
,
1100
1000
1000
1000
0011
0001
0001
0001
1100
0100
0100
0100
0011
0010
0010
0010
,
0201
0010
1000
0010
0001
0010
1000
0310
1002
0100
0010
0100
1000
0100
0010
0103
,
2010
0000
0001
0000
0010
0000
0100
0000
0001
0000
0010
0000
0100
0000
3001
0000
0010
0100
0010
0100
0010
0100
0010
0100
0010
0100
0010
0100
0010
0100
0010
0100
,
1002
0000
0010
1000
0100
0000
0100
1000
0010
0000
0010
1000
0100
0000
0013
0000
0210
0000
1000
0010
0001
0000
0001
0010
1000
0000
1000
0010
0001
0000
1300
0000
,
1020
0000
0100
0000
0001
0000
0100
0000
1000
0000
0100
0000
1000
0000
0031
0000
1000
0001
1000
0001
1000
0001
1000
0001
1000
0001
1000
0001
1000
0001
1000
0001
,
0110
0000
1100
0000
0110
0000
1100
0000
0011
0000
0101
0000
1010
0000
0110
0110
0110
0000
1100
0000
0011
0000
0110
0000
1001
0000
1010
0000
0110
0000
1100
0000
,
0202
0320
0230
2300
3200
2300
3200
0323
2032
0023
0230
0320
0230
0302
0023
3130
,
2002
0000
0000
0000
0000
0000
0000
0000
0000
0000
0000
0000
0000
0000
0000
3003
,
0100
0010
0100
0010
0100
0010
0100
0010
0100
0010
0100
0010
0100
0010
0100
0010
,
2002
0000
0000
0003
0120
0000
0000
0030
0201
0000
0000
0300
0012
0000
0000
3003
,
0210
0000
1000
0300
0002
0000
0010
0003
2000
0000
0100
3000
0020
0000
0001
0030
,
2000
0000
0010
0000
0000
3000
0201
0000
0000
0000
0000
0000
0000
0000
0000
0300
,
1020
0000
0000
0000
0000
0030
0102
0000
0000
0000
0000
0003
1200
0000
0000
0300
,
0021
0000
0000
0000
0000
0030
2001
0000
0000
0000
0000
0000
0000
0000
0000
3000
,
0110
0110
1100
1100
0011
0011
1001
1001
,
2010
0000
0001
0000
0010
3000
0102
0000
1000
0000
0100
0000
0010
0000
0100
0003
,
2020
0000
0030
0000
0000
3000
0202
0000
0003
0000
0000
0300
2020
0000
3000
0030
,
2002
0000
0000
0000
0000
0000
3003
0000
1001
0100
0010
0100
1001
0010
0100
0010
,
1001
0100
0010
0100
1010
0001
0010
0100
0011
0100
1000
0100
1010
0100
0010
0001
,
2010
0100
0010
0001
0010
3100
0002
0010
0100
1000
0100
1000
0010
0100
0010
1003
,
0020
0100
1000
0100
0001
1030
0200
0010
0001
0010
0001
0310
0002
0100
1000
0103
,
0020
0100
1000
0001
0100
0031
2000
0100
0010
0001
0010
3001
0200
1000
0001
0310
,
1001
0010
0001
0010
1100
0010
0100
1000
0101
0010
0001
0010
1001
0100
0010
0100
,
2010
0100
0010
0100
0010
3001
0020
0100
1000
0100
1000
0031
0200
0010
0001
0310
,
0002
0100
1000
0100
0010
0103
0020
0100
1000
0100
0001
1030
0200
0010
0001
0310
,
0002
0010
0100
1000
0100
1003
0020
0100
1000
0100
0001
1030
0200
0010
0001
0310
,
2001
0010
0100
0010
0101
0010
0001
0010
0100
0010
0100
0001
0110
0001
0010
3100
,
1020
0100
1000
0100
1001
0100
1000
0001
0100
1000
0100
1000
0101
1000
0100
0031
,
1200
0010
0001
0010
1001
0010
1000
0010
1000
0010
0001
1000
0011
1000
0001
0310
,
1002
0100
0010
0100
1010
0100
1000
0100
0010
0100
0010
1000
0110
1000
0100
1003
,
0110
1000
0100
0010
1100
0010
0001
0010
0101
0010
0100
1000
0101
0010
0100
0010
,
1001
0100
1000
0100
1010
0100
0010
0001
0110
1000
0010
0100
0011
0100
1000
0100
,
1001
0010
0100
0010
1100
0010
0100
0010
0101
0010
0001
0010
1100
0010
1000
0100
,
0011
0100
1000
0100
1010
0100
0010
0001
0110
0001
0010
1000
0110
0001
0010
0100
,
1001
0010
0100
0010
1001
0100
0010
0100
1001
0010
0100
0010
1001
0100
0010
0100
,
1001
0100
1000
0100
1000
0100
1000
0100
1001
0100
1000
0100
1001
0100
1000
0100
,
2002
0000
0000
0000
,
0000
0000
0000
0000
0000
0000
0000
0000
0000
0000
0000
0000
0000
0000
0000
0003
,
0010
0001
0010
0001
0010
0001
0010
0001
0010
0001
0010
0001
0010
0001
0010
0001
,
0010
0001
0010
0001
0010
0001
0010
0001
0010
0001
0010
0001
0010
0001
0010
3001
,
0220
0000
0000
0330
;

//---------------dance-single - Hard----------------
#NOTES:
     dance-single:
     Hard:
     Hard:
     8:
     0.606,1.000,0.167,0.890,0.337,515.000,27.000,144.000,8.000,3.000:
0000
0000
0000
0000
,
0000
0000
0000
0000
,
0000
0000
0000
0000
,
0000
0000
0000
0000
,
0001
1000
0010
0200
0000
0000
0000
0000
,
0310
1000
0001
0010
,
0001
1000
0100
0020
0000
0000
0000
0000
,
0130
1000
0001
0010
,
1001
0110
1001
0110
,
0002
0000
0000
0000
0000
0003
1000
0001
0020
0000
0000
0000
0000
0030
0001
0000
,
0200
0000
0000
0000
0000
0300
0010
1000
0020
0000
0000
0000
0000
0030
1000
0000
,
0200
0000
0000
0000
0000
0300
1000
0001
0020
0000
0000
0000
0000
0030
0100
1000
,
0001
0000
0000
0001
1000
0000
0000
1000
0010
0000
0000
0010
1000
0000
0001
0000
,
2000
0000
0000
0000
0000
0000
3001
0010
0200
0000
0000
0000
0000
0300
1000
0000
,
0020
0000
0000
0000
0000
0030
0100
0001
0200
0000
0000
0000
0000
0300
0001
0000
,
0020
0000
0000
0000
0000
0030
0001
1000
0200
0000
0000
0000
0000
0300
1000
0001
,
1000
0000
0000
1000
0001
0000
0000
0001
0100
0000
0000
0100
0001
0000
0000
0001
,
1000
0100
1000
0020
0030
1000
0001
1000
0001
0100
0010
2000
3000
0001
1000
0010
,
0100
0000
0001
0000
0010
0000
0200
0000
0300
0000
0001
0000
0100
0000
0001
0000
0010
0000
0000
0010
0001
0000
0000
0001
1000
0000
0000
1000
0001
0000
0000
0001
,
0010
0001
0010
0002
0003
0001
1000
0010
0100
0001
0010
0200
0300
1000
0001
1000
,
0010
0000
1000
0000
0001
0000
2000
0000
3000
0000
0100
0000
1000
0000
0010
0000
1000
0000
0000
1000
0001
0000
0000
0001
0010
0000
0000
0010
0100
0000
0000
0100
,
2000
3002
0203
0302
0023
0230
2300
3200
,
2300
3002
0023
0230
2300
0100
0010
0100
,
3020
2030
3020
0032
0203
0320
0032
0023
,
0032
2003
3200
0301
0002
0010
0010
0010
,
1003
0001
1000
0001
1000
0000
0001
0000
0010
0100
0010
0100
0010
0000
0100
0000
0001
1000
0010
0100
0001
0000
1000
0000
0001
0100
0010
1000
0001
0100
0010
0010
,
2002
0000
0000
0000
,
0000
0000
0000
0000
,
3003
1001
1001
1001
,
0002
2003
3020
0230
,
0302
0000
0000
2003
0000
0000
3020
0000
,
0230
0000
0000
2300
0000
0000
3200
0000
,
0320
0000
0000
2030
0000
0000
3002
0000
,
0023
2030
3002
0203
,
0302
0000
0000
2003
0000
0000
3020
0000
,
2030
0000
0000
3002
0000
0000
2003
0000
,
3002
0000
0000
2003
0000
0000
3020
0000
,
2030
3000
0010
0100
0001
1000
0010
0100
,
0002
0103
0010
0100
0001
0100
0010
0100
,
0002
0003
0001
1000
0001
1000
0010
1000
,
0002
0013
0100
1000
0001
0010
0100
1000
,
2000
3000
1000
0100
0001
0100
1000
0010
,
0002
0013
1000
0100
0010
0001
0010
1000
,
0200
0300
0100
0001
0010
0100
1000
0010
,
2000
3001
1000
0100
0010
0001
1000
0010
,
1001
1001
1001
1001
,
2000
0000
0000
0000
3002
0000
0000
0000
0203
0000
0000
0000
0302
0000
0000
0000
1003
0000
0000
1000
0001
0000
0000
0001
0100
0000
0000
0100
0010
0000
0000
0000
,
2000
0000
0000
0000
3002
0000
0000
0000
0023
0000
0000
0000
0230
0000
0000
0000
1300
0000
0000
1000
0010
0000
0000
0010
0100
0000
0000
0100
0001
0000
0000
0001
,
2000
0000
0000
0000
3020
0000
0000
0000
0230
0000
0000
0000
0302
0000
0000
0000
1003
0000
0000
1000
0010
0000
0000
0010
1000
0000
0000
1000
0001
0000
0000
0000
,
2000
0000
0000
0000
3002
0000
0000
0000
2003
0000
0000
0000
3020
0000
0000
0000
1030
0000
0000
1000
0001
0000
0000
0001
0100
0000
0000
0100
0010
0000
0000
0010
,
1000
0010
0100
0001
1000
0010
0100
0001
0010
0100
1000
0100
0010
0100
1000
0010
,
1000
0001
0100
0010
1000
0001
0100
0010
1000
0001
1000
0010
0100
0001
1000
0010
,
2002
0000
0000
0000
,
0000
0000
0000
0000
,
3003
1001
1001
1001
,
0002
0023
2030
3200
,
0302
0000
0000
2000
0000
0000
0000
0000
,
3023
0000
0000
2030
0000
0000
3002
0000
,
2000
0000
0003
0002
0000
0000
0000
0003
,
3021
0230
0320
0032
,
2003
0000
0000
3002
0000
0000
0000
0000
,
2003
0000
0000
3020
0000
0000
0230
0000
,
0302
0000
0000
2003
0000
0000
3020
0000
,
0031
1000
0001
0000
1000
0000
0010
0000
0100
0010
0100
0000
0001
0000
1000
0000
,
0001
1000
0010
0000
0100
0000
0010
0000
0001
1000
0100
0000
0001
1000
0001
1000
,
0002
0000
0000
2003
0000
0000
3020
0000
,
2030
0000
0000
3002
0000
0000
0203
0000
,
0301
0100
1000
0000
0100
0000
0001
0000
1000
0100
0001
0000
0100
0000
1000
0000
,
0001
1000
0010
0000
0010
1000
0100
0000
1000
0100
0010
0001
1000
0010
0100
0001
,
0200
0000
0000
2300
0000
0000
3002
0000
,
2003
0000
0000
3002
0000
0000
0023
0000
,
0032
1003
0010
0100
0001
1000
0010
0100
,
0002
0103
0010
0100
0001
0100
0010
0100
,
0002
1003
0010
1000
0001
1000
0010
1000
,
0002
0013
0100
1000
0001
0010
0100
1000
,
2000
3001
1000
0100
0001
0100
1000
0010
,
0002
0013
1000
0100
0010
0001
0010
1000
,
0200
0310
0100
0001
0010
0100
1000
0010
,
2000
3001
1000
0100
0010
0001
1000
0010
,
1001
0011
1100
0110
,
1001
0011
1100
1001
,
2MM2
0000
0000
0000
,
0MM0
0000
0000
0000
,
0MM0
0000
0000
0000
,
0MM0
0000
0000
0000
,
3113
0000
0000
0000
;

//---------------dance-single - ----------------
#NOTES:
     dance-single:
     :
     Medium:
     6:
     0.503,0.735,0.124,0.859,0.121,411.000,20.000,139.000,8.000,4.000:
0000
0000
0000
0000
,
0000
0000
0000
0000
,
0000
0000
0000
0000
,
0000
0000
0000
0000
,
1000
0100
1000
0200
0000
0000
0000
0000
,
1300
0001
0100
0010
,
1000
0010
1000
0020
0000
0000
0000
0000
,
0130
0010
1000
0001
,
2001
0001
0001
0001
,
3002
0000
0000
1000
2003
0000
0000
0100
,
3200
0000
0000
0010
0320
0000
0000
0001
,
0032
0000
0000
0100
0203
0000
0000
0010
,
0320
1000
0100
1000
,
0230
0000
0000
0001
0302
0000
0000
1000
,
2003
0000
0000
0010
3020
0000
0000
0100
,
0230
0000
0000
0001
0302
0000
0000
1000
,
2003
0000
0100
0001
3002
0000
0010
0000
,
1003
0100
1000
0100
0000
0000
0000
0000
0001
0010
0001
0010
0000
0000
0000
0000
,
0100
0010
0100
0010
0000
0000
0000
0000
0001
0000
1000
0000
0010
0000
0100
0000
,
0001
1000
0001
1000
0000
0000
0000
0000
1000
0001
1000
0001
0000
0000
0000
0000
,
1000
0010
1000
0010
0000
0000
0000
0000
0001
0000
1000
0000
0100
0000
0010
0000
,
0001
0010
0001
0010
0001
0000
1000
0000
1000
0100
1000
0100
1000
0000
0010
0000
,
0010
0100
0010
0100
0010
0000
1000
0000
1000
0000
0001
0000
0100
0000
0010
0000
,
1000
0001
1000
0001
1000
0000
0001
0000
0001
1000
0001
1000
0001
0000
0001
0000
,
0001
0100
0001
0100
0001
0000
1000
0000
1000
0000
0001
0000
0010
0000
0100
0000
,
0001
1000
0010
0100
0001
1000
0100
0010
0001
1000
0001
1000
0010
0100
0010
0100
,
2002
0000
0000
0000
,
0000
0000
0000
0000
0000
0000
0000
3003
,
1001
0010
0100
0010
,
2001
3020
0230
0302
,
2003
0000
0000
3002
0000
0000
0203
0000
,
0302
0000
0000
0023
0000
0000
0230
0000
,
2300
0000
0000
3020
0000
0000
0230
0300
,
2001
3002
2003
3020
,
0230
0000
0000
0302
0000
0000
0023
0000
,
2030
0000
0000
3200
0000
0000
0320
0000
,
0032
0000
0000
2003
0000
0000
3020
0000
,
2030
0000
3001
0010
0001
0010
0001
0010
,
0001
0100
0001
1000
0001
0100
0001
0010
,
0002
0000
0103
0010
0100
0010
0100
0010
,
0100
0001
0100
0010
0100
1000
0100
0010
,
0200
0000
0301
0010
0001
0010
0001
0010
,
0001
0100
0001
0010
0001
1000
0001
0100
,
0002
0000
0103
0010
0100
0010
0100
0010
,
0100
0001
0100
0001
0100
0001
0100
0001
,
1001
0100
0010
0100
,
2001
3002
0203
0320
2030
3002
2003
3002
,
0203
0320
2030
3002
2003
0000
0000
0000
,
3002
2003
3020
0230
0302
2003
3002
2003
,
3020
0230
0302
2003
3002
0000
0000
0000
,
1003
0000
0001
0000
1000
0000
0001
0100
0010
0000
0100
0000
0010
0100
0001
0000
,
0100
0000
0001
0000
0100
0000
1000
0001
0010
0100
1000
0001
0010
0001
0100
0010
,
2002
0000
0000
0000
,
0000
0000
0000
0000
0000
0000
0000
3003
,
1001
0001
1000
0001
,
1002
0203
0320
2030
,
3002
0000
0000
2003
0000
0000
0000
0000
,
3020
0000
0000
0230
0000
0000
0320
0000
,
2030
0000
0000
3200
0000
0000
0000
0000
,
1302
2003
3002
0203
,
0320
0000
0000
2030
0000
0000
0000
0000
,
3002
0000
0000
0023
0000
0000
0230
0000
,
2300
0000
0000
3002
0000
0000
0203
0000
,
2301
3020
0230
0302
,
2003
0000
0000
3002
0000
0000
0000
0000
,
0203
0000
0000
0320
0000
0000
0230
0000
,
0302
0000
0000
0023
0000
0000
0000
0000
,
2031
3002
2003
3020
,
0230
0000
0000
0302
0000
0000
0203
0000
,
0302
0000
0000
0203
0000
0000
0320
0000
,
2030
0000
0000
3002
0000
0000
0023
0000
,
0032
0000
1003
0100
1000
0100
1000
0100
,
1000
0010
1000
0001
1000
0010
1000
0100
,
2000
0000
3010
0100
0010
0100
0010
0100
,
0010
1000
0010
0100
0010
0001
0010
0100
,
0020
0000
1030
0100
1000
0100
1000
0100
,
1000
0010
1000
0100
1000
0001
1000
0010
,
2000
0000
3010
0100
0010
0100
0010
0100
,
0010
1000
0010
1000
0010
1000
0010
1000
,
1001
0010
0100
0010
,
2002
3003
0220
0330
2002
3003
0220
0330
,
2MM2
0000
0000
0000
,
0MM0
0000
0000
0000
,
0MM0
0000
0000
0000
,
0MM0
0000
0000
0000
,
3113
0000
0000
0000
;

//---------------dance-single - Easy----------------
#NOTES:
     dance-single:
     Easy:
     Easy:
     5:
     0.486,0.919,0.068,0.977,0.062,381.000,11.000,158.000,8.000,2.000:
0000
0000
0000
0000
,
0000
0000
0000
0000
,
0000
0000
0000
0000
,
0000
0000
0000
0000
,
0002
0000
0000
0000
,
1003
0100
0010
0001
,
0020
0000
0000
0000
,
0130
1000
0001
0010
,
0100
0100
0100
0100
,
1001
0001
2000
0100
,
3020
0001
0230
0001
,
2300
0001
3020
0100
,
2032
0000
0000
3003
,
1001
1000
0002
0010
,
0203
1000
0320
1000
,
0032
1000
0203
0010
,
2300
0000
0010
0000
0002
0000
0000
3003
,
1000
0001
1000
0001
0100
0010
0100
0010
,
0100
0001
0010
0001
2000
0001
0001
0001
,
3001
1000
0001
1000
0010
0100
0010
0100
,
0010
1000
0100
1000
0002
1000
1000
1000
,
2003
3200
0320
0230
2300
3002
2003
3002
,
0203
0302
2003
3002
0203
0010
0010
0310
,
0020
2030
3002
2003
3020
0230
0320
0230
,
2300
3200
0320
0230
0302
1000
1000
1003
,
0001
0000
1000
0000
0001
0000
1000
0000
0010
0000
0100
0000
0010
0000
0100
0000
0001
0000
1000
0000
0001
0000
1000
0000
0010
0100
0010
0100
0010
0100
0010
0100
,
2002
0000
0000
0000
,
0000
0000
0000
0000
,
3003
0001
1000
0001
,
2000
3002
0203
0320
,
2030
0000
0000
3002
0000
0000
0203
0000
,
0320
0000
0000
2030
0000
0000
3200
0000
,
2300
0000
0000
3002
0000
0000
0203
0000
,
0302
0023
0032
2003
,
3200
0000
0000
0320
0000
0000
0032
0000
,
2003
0000
0000
3200
0000
0000
0302
0000
,
0203
0000
0000
0320
0000
0000
0032
0000
,
1003
0000
0001
1000
0001
1000
0001
1000
,
0001
0000
1000
0001
1000
0000
0001
1000
,
0001
0000
1000
0001
1000
0001
1000
0001
,
1000
0000
0001
1000
0001
0000
1000
0001
,
0100
0000
0010
0100
0010
0100
0010
0100
,
0010
0000
0100
0010
0100
0000
0010
0100
,
0010
0000
0100
0010
0100
0010
0100
0010
,
0100
0000
0010
0100
0010
0000
0100
0010
,
0100
0001
1000
0010
,
0002
0023
0230
0320
0032
2003
3002
2003
,
3020
2030
3002
2003
3020
0100
0100
0130
,
0200
0302
2003
3002
0203
0320
0230
0320
,
0032
0023
0230
0320
2030
0001
0001
3001
,
1000
0001
1000
0001
0100
0010
0100
0010
,
1000
0001
0100
0010
1000
0001
0100
0010
1000
0001
0100
0010
1000
0001
0100
0010
,
2002
0000
0000
0000
,
0000
0000
0000
0000
,
3003
0001
1000
0002
,
2003
3002
0203
0320
,
2030
0000
0000
3002
0000
0000
0000
0000
,
0203
0000
0000
0320
0000
0000
2030
0000
,
3002
0000
0000
2003
0000
0000
0000
0000
,
3002
2003
3020
0230
,
0302
0000
0000
2003
0000
0000
0000
0000
,
3020
0000
0000
0230
0000
0000
0302
0000
,
2003
0000
0000
3002
0000
0000
2000
3000
,
2003
3002
0203
0320
,
2030
0000
0000
3002
0000
0000
0000
0000
,
0203
0000
0000
0320
0000
0000
2030
0000
,
3002
0000
0000
2003
0000
0000
0000
0000
,
3002
2003
3020
0230
,
0302
0000
0000
2003
0000
0000
3002
0000
,
0023
0000
0000
0230
0000
0000
2300
0000
,
3002
0000
0000
2003
0000
0000
0020
0030
,
3010
0000
0100
0010
0100
0010
0100
0010
,
0100
0000
0010
0100
0010
0000
0100
0010
,
0100
0000
0010
0100
0010
0100
0010
0100
,
0010
0000
0100
0010
0100
0000
0010
0100
,
0001
0000
0001
1000
0001
1000
0001
1000
,
0001
0000
1000
0001
1000
0000
0001
1000
,
0001
0000
1000
0001
1000
0001
1000
0001
,
1000
0000
0001
1000
0001
0000
1000
0001
,
1000
0001
1000
0001
,
2002
3003
0000
0000
2002
3003
0000
0000
2002
3003
0000
0000
2002
3003
0000
0000
,
2MM2
0000
0000
0000
,
0MM0
0000
0000
0000
,
0MM0
0000
0000
0000
,
0MM0
0000
0000
0000
,
3113
0000
0000
0000
;

//---------------dance-single - Beginner----------------
#NOTES:
     dance-single:
     Beginner:
     Beginner:
     3:
     0.329,0.447,0.031,0.946,0.000,215.000,5.000,153.000,8.000,0.000:
0000
0000
0000
0000
,
0000
0000
0000
0000
,
0000
0000
0000
0000
,
0000
0000
0000
0000
,
0002
0000
0000
0000
,
1003
0100
0010
0001
,
0020
0000
0000
0000
,
0130
1000
0001
0010
,
0100
0100
0100
0100
,
1001
0001
2000
0000
,
3020
0000
0230
0000
,
0302
0000
0023
0000
,
0032
0000
0000
0003
,
1001
1000
0002
0000
,
0203
0000
0320
0000
,
2030
0000
3200
0000
,
2300
0000
0000
0000
0002
0000
0000
3003
,
1000
1000
0100
0100
,
0100
0010
2000
0001
,
3001
0001
0010
0010
,
0010
0100
0002
1000
,
2003
3000
0020
0030
2000
3000
2000
3000
,
0200
0300
2000
3000
0200
0000
0010
0300
,
0020
0030
0002
0003
0020
0030
0020
0030
,
2000
3000
0020
0030
0002
0000
1000
0003
,
0001
1000
0001
1000
0010
0100
0010
0100
,
2002
0000
0000
0000
,
0000
0000
0000
0000
,
3003
0001
1000
0001
,
2000
3002
2003
3002
,
2003
0000
0000
3002
0000
0000
0000
0000
,
2003
0000
0000
3002
0000
0000
2003
0000
,
3002
0000
0000
2003
0000
0000
0000
0000
,
3002
2003
3002
2003
,
3002
0000
0000
2003
0000
0000
0000
0000
,
3002
0000
0000
2003
0000
0000
3002
0000
,
2003
0000
0000
3002
0000
0000
2000
3000
,
2003
3000
0200
0300
,
2000
3000
2000
3000
,
0200
0300
2000
3000
,
0200
0300
0200
0300
,
2000
3000
0020
0030
,
2000
3000
2000
3000
,
0200
0300
2000
3000
,
0020
0030
0020
0030
,
0000
0001
1000
0010
,
0002
0003
0200
0300
0002
0003
0002
0003
,
0020
0030
0002
0003
0020
0000
0100
0030
,
0200
0300
2000
3000
0200
0300
0200
0300
,
0002
0003
0200
0300
2000
0000
0001
3000
,
1000
1000
0100
0100
,
1000
1000
0001
0100
,
2002
0000
0000
0000
,
0000
0000
0000
0000
,
3003
0001
1000
0002
,
2003
3002
2003
3002
,
2003
0000
0000
3002
0000
0000
0000
0000
,
2003
0000
0000
3002
0000
0000
2003
0000
,
3002
0000
0000
2003
0000
0000
0000
0000
,
3002
2003
3002
2003
,
3002
0000
0000
2003
0000
0000
0000
0000
,
3002
0000
0000
2003
0000
0000
3002
0000
,
2003
0000
0000
3002
0000
0000
2000
3000
,
2003
3002
2003
3002
,
2003
0000
0000
3002
0000
0000
0000
0000
,
2003
0000
0000
3002
0000
0000
2003
0000
,
3002
0000
0000
2003
0000
0000
0000
0000
,
3002
2003
3002
2003
,
3002
0000
0000
2003
0000
0000
0000
0000
,
3002
0000
0000
2003
0000
0000
3002
0000
,
2003
0000
0000
3002
0000
0000
2000
3000
,
0203
0300
0200
0300
,
2000
3000
2000
3000
,
0200
0300
2000
3000
,
0200
0300
0200
0300
,
2000
3000
0020
0030
,
2000
3000
2000
3000
,
0200
0300
2000
3000
,
0020
0030
0020
0030
,
0000
0001
1000
0001
,
1000
0001
1000
0001
,
2MM2
0000
0000
0000
,
0MM0
0000
0000
0000
,
0MM0
0000
0000
0000
,
0MM0
0000
0000
0000
,
3003
0000
0000
0000
;
